Регистрация ·
Имя: Пароль:  
· Забыли пароль?
 



Доктор Айболит (1985) BDRemux 1080p | Лицензия

Ответить на тему
Статистика раздачи
Нет
 
 
 
 
Автор Сообщение

Wolkodav Music ®

Стаж: 5 лет 8 месяцев

Сообщений: 1211

Пост 06-Апр-2018 00:30

[Цитировать]

Название: Доктор Айболит
Год выхода: 1985
Жанр: Мюзикл, приключения
Режиссеры: Давид Черкасский
В ролях: Георгий Кишко, Семен Фарада, Мария Миронова, Зиновий Гердт, Людмила Иванова, Людмила Ларина, Зоя Пыльнова, Всеволод Абдулов, Евгений Паперный, Юрий Врублевский-О фильме:
Злой разбойник Бармалей, именем которого давно пугали детей, сидит в тюрьме под охраной Гиппопотама. Друзья-пираты помогают своему главарю сбежать, но Гиппопотам тайком проникает на их корабль и старается выведать планы злодеев. В это время тётушка Варвара, сварливая сестра доброго доктора Айболита, уходит от брата, заявляя, что ненавидит зверей, которых любит и лечит доктор. По воле случая Варвара попадает на пиратскую шхуну. Шхуна причаливает к берегам Африки, где разбойники устраивают для зверей представление «Муха-Цокотуха» (партию Мухи исполняет Варвара), а затем раздают отравленное угощение, и все звери заболевают. Гиппопотам, который всё видел, звонит в Ленинград Айболиту.- -Страна: СССР
Студия: Киевнаучфильм
Продолжительность: 01:11:19
Перевод: не требуется-Формат: MKV
Качество: BDRemux 1080p
Видео: MPEG-4 AVC Video / 19.3 Mbps / 1920x1080 / 23.976 fps
Звук: Russian / Dolby Digital Audio / 5.1 / 48 kHz / 448 kbps

MediaInfo

Format : Matroska
Format version : Version 2
File size : 10.1 GiB
Duration : 1 h 11 min
Overall bit rate mode : Variable
Overall bit rate : 20.2 Mb/s
Movie name : Доктор Айболит (1985) BDRemux 1080p
Encoded date : UTC 2018-02-22 16:58:12
Writing application : mkvmerge v4.9.1 ('Ich will') сборка от Jul 11 2011 23:53:15
Writing library : libebml v1.2.1 + libmatroska v1.1.1
Video
ID : 1
Format : AVC
Format/Info : Advanced Video Codec
Format profile : High@L4.1
Format settings, CABAC : Yes
Format settings, RefFrames : 4 frames
Format settings, GOP : M=3, N=24
Codec ID : V_MPEG4/ISO/AVC
Duration : 1 h 11 min
Bit rate mode : Variable
Bit rate : 19.3 Mb/s
Maximum bit rate : 25.0 Mb/s
Width : 1 920 pixels
Height : 1 080 pixels
Display aspect ratio : 16:9
Frame rate mode : Constant
Frame rate : 23.976 (24000/1001) FPS
Standard : NTSC
Color space : YUV
Chroma subsampling : 4:2:0
Bit depth : 8 bits
Scan type : Progressive
Bits/(Pixel*Frame) : 0.389
Stream size : 9.64 GiB (96%)
Title : Доктор Айболит
Language : Russian
Default : Yes
Forced : No
Color range : Limited
Color primaries : BT.709
Transfer characteristics : BT.709
Matrix coefficients : BT.709
Audio
ID : 2
Format : AC-3
Format/Info : Audio Coding 3
Format settings, Endianness : Big
Codec ID : A_AC3
Duration : 1 h 11 min
Bit rate mode : Constant
Bit rate : 448 kb/s
Channel(s) : 6 channels
Channel positions : Front: L C R, Side: L R, LFE
Sampling rate : 48.0 kHz
Frame rate : 31.250 FPS (1536 SPF)
Bit depth : 16 bits
Compression mode : Lossy
Stream size : 229 MiB (2%)
Title : Dolby Digital, 448 kbps, 6 channels
Language : Russian
Service kind : Complete Main
Default : Yes
Forced : No
Menu
00:00:00.000 : :Chapter 01
00:10:05.229 : :Chapter 02
00:20:15.756 : :Chapter 03
00:30:15.146 : :Chapter 04
00:40:38.644 : :Chapter 05
00:50:54.426 : :Chapter 06
01:00:54.442 : :Chapter 07
01:11:18.440 : :Chapter 08

Скриншоты


Вне форума
[Профиль] [ЛС]
Показать сообщения:    
Ответить на тему

Текущее время: Сегодня 00:58

Часовой пояс: GMT + 2



Вы не можете начинать темы
Вы не можете отвечать на сообщения
Вы не можете редактировать свои сообщения
Вы не можете удалять свои сообщения
Вы не можете голосовать в опросах
Вы не можете прикреплять файлы к сообщениям
Вы не можете скачивать файлы