Регистрация ·
Имя: Пароль:  
· Забыли пароль?
 



Аленький цветочек (1952) DVDRip-AVC от KORSAR

Ответить на тему
Статистика раздачи
Нет
 
 
 
 
Автор Сообщение

Wolkodav Music ®

Стаж: 5 лет 8 месяцев

Сообщений: 1211

Пост 07-Апр-2018 23:30

[Цитировать]


Информация о фильме
Название: Аленький цветочек
Год выпуска: 1952
Жанр: Мультфильм
Страна: СССР
Продолжительность: 00:39:46
Режиссёр: Лев Атаманов
Роли озвучивали:
Николай Боголюбов — Степан Емельянович, купец
Владимир Грибков — Кондрат
Ольга Чепурова — Гордея
Мария Бабанова — Любава
Нина Крачковская — Настенька
Алексей Консовский — Чудовище / Принц
Песню Настеньки «В эту пору в родимой сторонушке» исполнила известная камерная певица Виктория Иванова.
Описание: «Аленький цветочек» — советский полнометражный рисованный мультипликационный фильм, созданный режиссёром Львом Атамановым по одноимённой сказке Сергея Аксакова, один из знаменитых фильмов студии «Союзмультфильм» 1952 года. Спустя 60 лет, в 2012 году, получил оценку 6+ (для зрителей, достигших возраста 6 лет). Аленький цветочек - подарок, который младшая дочь Настенька просила отца привезти из дальних стран. Отец попадает во дворец Чудища, где срывает цветок, но за это ему грозит смерть. Дочь спасает отца, расколдовав Чудище.
[img]https://rating.kinopoisk.ru/278377.gif[/img]
Файл
Качество: DVDRip-AVC
Формат: MKV
Видео кодек: H264
Аудио кодек: AC3
Видео: MPEG-4 AVC, 720x536, 2500 Kbps, 25.000 fps
Аудио: Dolby AC3, 48000 Hz, 6ch, 448 kbps
Релиз от:

Скриншоты


MediaInfo

General
Unique ID : 196679300721613664792050546197175461578 (0x93F70E3349AD877C8332775BD8C3E6CA)
Complete name : F:Torrent 21952.Alenkij.cvetochek.likko.KORSAR.mkv
Format : Matroska
Format version : Version 2
File size : 839 MiB
Duration : 39 min 46 s
Overall bit rate : 2 950 kb/s
Encoded date : UTC 2017-02-17 19:59:06
Writing application : mkvmerge v7.8.0 ('River Man') 32bit built on Apr 3 2015 12:11:22
Writing library : libebml v1.3.1 + libmatroska v1.4.2
Video
ID : 1
Format : AVC
Format/Info : Advanced Video Codec
Format profile : High@L4.1
Format settings, CABAC : Yes
Format settings, ReFrames : 16 frames
Codec ID : V_MPEG4/ISO/AVC
Duration : 39 min 46 s
Bit rate : 2 500 kb/s
Width : 720 pixels
Height : 536 pixels
Display aspect ratio : 4:3
Frame rate mode : Constant
Frame rate : 25.000 FPS
Color space : YUV
Chroma subsampling : 4:2:0
Bit depth : 8 bits
Scan type : Progressive
Bits/(Pixel*Frame) : 0.259
Stream size : 695 MiB (83%)
Writing library : x264 core 146 r2538 121396c
Encoding settings : cabac=1 / ref=16 / deblock=1:-1:-1 / analyse=0x3:0x133 / me=umh / subme=11 / psy=1 / psy_rd=1.11:0.15 / mixed_ref=1 / me_range=32 / chroma_me=1 / trellis=2 / 8x8dct=1 / cqm=0 / deadzone=21,11 / fast_pskip=0 / chroma_qp_offset=-3 / threads=12 / lookahead_threads=3 / sliced_threads=0 / nr=0 / decimate=1 / interlaced=0 / bluray_compat=0 / constrained_intra=0 / bframes=10 / b_pyramid=2 / b_adapt=2 / b_bias=0 / direct=3 / weightb=1 / open_gop=0 / weightp=2 / keyint=250 / keyint_min=25 / scenecut=40 / intra_refresh=0 / rc=2pass / mbtree=0 / bitrate=2500 / ratetol=1.0 / qcomp=0.60 / qpmin=0 / qpmax=69 / qpstep=4 / cplxblur=20.0 / qblur=0.5 / ip_ratio=1.40 / pb_ratio=1.30 / aq=2:1.00
Default : Yes
Forced : No
Audio
ID : 2
Format : AC-3
Format/Info : Audio Coding 3
Mode extension : CM (complete main)
Format settings, Endianness : Big
Codec ID : A_AC3
Duration : 39 min 46 s
Bit rate mode : Constant
Bit rate : 448 kb/s
Channel(s) : 6 channels
Channel positions : Front: L C R, Side: L R, LFE
Sampling rate : 48.0 kHz
Frame rate : 31.250 FPS (1536 spf)
Bit depth : 16 bits
Compression mode : Lossy
Stream size : 127 MiB (15%)
Default : Yes
Forced : No
Вне форума
[Профиль] [ЛС]
Показать сообщения:    
Ответить на тему

Текущее время: Сегодня 04:11

Часовой пояс: GMT + 2



Вы не можете начинать темы
Вы не можете отвечать на сообщения
Вы не можете редактировать свои сообщения
Вы не можете удалять свои сообщения
Вы не можете голосовать в опросах
Вы не можете прикреплять файлы к сообщениям
Вы не можете скачивать файлы