Регистрация ·
Имя: Пароль:  
· Забыли пароль?
 



National Geographic: Человек весом в полтонны / National Geographic: Half Ton Man (2005) SATRip

Ответить на тему
Статистика раздачи
Нет
 
 
 
 
Автор Сообщение

Djek_Vorobey Books ®

Стаж: 5 лет 8 месяцев

Сообщений: 830

Пост 01-Мар-2018 17:15

[Цитировать]


Информация о фильме
Название: National Geographic: Человек весом в полтонны
Оригинальное название: National Geographic: Half Ton Man
Год выхода: 2005
Жанр: документальный
Режиссер: Катинка Блэкфорд Ньюман
О фильме:
США, Небраска. Специальную службу скорой помощи вызывают для выполнения невероятной задачи. Чтобы добраться до пациента им нужно снести одну из стен дома. Патрик Дьюэл - страдающий ожирением американец, который объедался буквально до смерти. При весе в 482 килограммов, Патрик был самым тяжелым человеком в мире до тех пор, пока ему не пришлось лечь на операцию по уменьшению желудка. Несмотря на все усилия и деньги, вложенные в лечение, Патрик не прекращает объедаться, зная, что от этого он может умереть. Фильм рассказывает историю Патрика и дает научное объяснение ожирению и огромным физическим нагрузкам, которым подвержены люди, страдающие лишним весом.
Страна: Великобритания, США
Студия: National Geographic Channel
Продолжительность: 00:48:56
Перевод:Профессиональный (одноголосый)
РЕЛИЗ
ОТ

Файл
Кодек: XVID
Качество: SATRip
Видео: 704 x 400 (1.760) at 25.000 fps/AVI at 1545 Кбит/сек
Звук: MPEG Audio at 128 Кбит/сек/2 канала(ов), 48,0 КГц
MediaInfo

Скрытый текст

Формат : AVI
Формат/Информация : Audio Video Interleave
Размер файла : 541 Мбайт
Продолжительность : 48 м.
Общий поток : 1545 Кбит/сек
Библиотека кодирования : VirtualDub build 32507/release
Видео
Идентификатор : 0
Формат : MPEG-4 Visual
Профиль формата : Advanced Simple@L5
Параметр BVOP формата : 2
Параметр QPel формата : Нет
Параметр GMC формата : Без точки перехода
Параметр матрицы формата : Default (H.263)
Режим смешивания : Сжатый битовый поток
Идентификатор кодека : XVID
Идентификатор кодека/Подсказка : XviD
Продолжительность : 48 м.
Битрейт : 1408 Кбит/сек
Ширина : 704 пикс.
Высота : 400 пикс.
Соотношение сторон : 16:9
Частота кадров : 25,000 кадр/сек
Цветовое пространство : YUV
Подвыборка цветности : 4:2:0
Битовая глубина : 8 бит
Тип развёртки : Прогрессивная
Метод сжатия : С потерями
Бит/(Пиксели*Кадры) : 0.200
Размер потока : 493 Мбайт (91%)
Библиотека кодирования : XviD 1.2.1 (UTC 2008-12-04)
Аудио
Идентификатор : 1
Формат : MPEG Audio
Версия формата : Version 1
Профиль формата : Layer 3
Режим : Joint stereo
Расширение режима : MS Stereo
Идентификатор кодека : 55
Идентификатор кодека/Подсказка : MP3
Продолжительность : 48 м.
Вид битрейта : Постоянный
Битрейт : 128 Кбит/сек
Канал(ы) : 2 канала(ов)
Частота : 48,0 КГц
Метод сжатия : С потерями
Размер потока : 44,8 Мбайт (8%)
Выравнивание : Разделение по промежуткам
Продолжительность промежутка : 40 мс. (1,00 видеокадр)
Время предзагрузки промежутка : 500 ms

Скриншоты






Вне форума
[Профиль] [ЛС]
Показать сообщения:    
Ответить на тему

Текущее время: Сегодня 04:12

Часовой пояс: GMT + 2



Вы не можете начинать темы
Вы не можете отвечать на сообщения
Вы не можете редактировать свои сообщения
Вы не можете удалять свои сообщения
Вы не можете голосовать в опросах
Вы не можете прикреплять файлы к сообщениям
Вы не можете скачивать файлы