Регистрация ·
Имя: Пароль:  
· Забыли пароль?
 



National Geographic. Скорость - смертельное оружие / Killer Instincts: Speed (2003) DVDRip-AVC от Тorrent-Хzona

Ответить на тему
Статистика раздачи
Нет
 
 
 
 
Автор Сообщение

Djek_Vorobey Books ®

Стаж: 5 лет 8 месяцев

Сообщений: 830

Пост 10-Апр-2018 16:45

[Цитировать]


Инфомация о фильме
Название: National Geographic. Скорость - смертельное оружие
Оригинальное название: National Geographic. Killer Instincts: Speed
Год выхода: 2003
Жанр: Документальный, научно - популярный
О фильме
На равнинах африканской саванны нет животного быстрее гепарда, преследующего свою жертву со скоростью 115 км/ч. В толщах воды киты и дельфины участвуют в стремительной гонке за добычей. Даже такие маленькие существа, как хамелеоны, пауки и змеи, ловят себе ужин с помощью молниеносных рефлексов и элемента неожиданности. Но ни один список чемпионов скорости не будет полным без сокола сапсана, самого быстрого животного на Земле, развивающего скорость свыше 320 км/ч. Мгновенные выпады, стремительные движения или просто несравненная быстрота - бесценные инструменты в борьбе за выживание. Познакомьтесь с опасными хищниками, основное оружие которых - скорость, и с их добычей, выживающей благодаря своему проворству..
Страна: США
Продолжительность: ~ 00:47:00
Перевод: Профессиональный (одноголосый)
Файл
Формат: MKV
Качество: DVDRip-AVC
Видео: MPEG4 AVC 768 x 576, 25.000 fps, 1700 - 1894 Кбит/сек
Звук: AC-3, 2 ch, 192 Кбит/сек
Субтитры: Нет

MediaInfo:

General
Unique ID : 180276807935788476960455717475527845425 (0x87A00CDE60960872BB4E6B9D7B466631)
Complete name : C:DownloadsГотовые фильмыWeapon_speed.2003.x264.DVDRip.(AVC).by.Тorrent-Хzona.mkv
Format : Matroska
Format version : Version 2
File size : 637 MiB
Duration : 47mn 2s
Overall bit rate : 1 894 Kbps
Encoded date : UTC 2013-07-06 21:08:40
Writing application : mkvmerge v6.1.0 ('Old Devil') built on Mar 4 2013 09:10:42
Writing library : libebml v1.3.0 + libmatroska v1.4.0
Video
ID : 1
Format : AVC
Format/Info : Advanced Video Codec
Format profile : High@L4.1
Format settings, CABAC : Yes
Format settings, ReFrames : 5 frames
Codec ID : V_MPEG4/ISO/AVC
Duration : 47mn 2s
Bit rate : 1 700 Kbps
Width : 768 pixels
Height : 576 pixels
Display aspect ratio : 4:3
Frame rate mode : Constant
Frame rate : 25.000 fps
Color space : YUV
Chroma subsampling : 4:2:0
Bit depth : 8 bits
Scan type : Progressive
Bits/(Pixel*Frame) : 0.154
Stream size : 560 MiB (88%)
Writing library : x264 core 130 r2273 b3065e6
Encoding settings : cabac=1 / ref=5 / deblock=1:-2:-2 / analyse=0x3:0x111 / me=umh / subme=9 / psy=1 / psy_rd=0.00:0.10 / mixed_ref=1 / me_range=32 / chroma_me=1 / trellis=2 / 8x8dct=1 / cqm=0 / deadzone=21,11 / fast_pskip=1 / chroma_qp_offset=-1 / threads=12 / lookahead_threads=1 / sliced_threads=0 / nr=0 / decimate=1 / interlaced=0 / bluray_compat=0 / constrained_intra=0 / bframes=5 / b_pyramid=2 / b_adapt=0 / b_bias=0 / direct=1 / weightb=1 / open_gop=0 / weightp=2 / keyint=250 / keyint_min=25 / scenecut=40 / intra_refresh=0 / rc_lookahead=50 / rc=2pass / mbtree=1 / bitrate=1700 / ratetol=1.0 / qcomp=0.60 / qpmin=0 / qpmax=69 / qpstep=4 / cplxblur=20.0 / qblur=0.5 / ip_ratio=1.40 / aq=1:1.00
Default : Yes
Forced : No
Audio
ID : 2
Format : AC-3
Format/Info : Audio Coding 3
Mode extension : CM (complete main)
Format settings, Endianness : Big
Codec ID : A_AC3
Duration : 47mn 2s
Bit rate mode : Constant
Bit rate : 192 Kbps
Channel(s) : 2 channels
Channel positions : Front: L R
Sampling rate : 48.0 KHz
Bit depth : 16 bits
Compression mode : Lossy
Stream size : 64.6 MiB (10%)
Default : Yes
Forced : No

Скриншоты

Релиз от:
Вне форума
[Профиль] [ЛС]
Показать сообщения:    
Ответить на тему

Текущее время: Сегодня 04:10

Часовой пояс: GMT + 2



Вы не можете начинать темы
Вы не можете отвечать на сообщения
Вы не можете редактировать свои сообщения
Вы не можете удалять свои сообщения
Вы не можете голосовать в опросах
Вы не можете прикреплять файлы к сообщениям
Вы не можете скачивать файлы